The New Mutants 2020 BDRip full full movie download torrent

The New Mutants 2020 The New Mutants 2020 BDRip full full movie download torrent

Seeds: 39 Peers: 38

Trusted uploader DOWNLOAD

Torrent taken from

is a safe and virus-free torrent page with SUPER FAST DOWNLOAD SPEED!

.Relax:

ViDEO: 2200 kbps

SOLUTION: 1920×1040

RUNTiME: 1 hour 34 min

SUBTITLES: No.

AUDiO: 384 kbps AC-3 6 channels

English language

CODER: eSc

SPECIAL THANKS: BOSS_HITMAN + DdHD + KING_DVD + Ach + Mr. Spy + Warm + MUSE

NOTES: Enjoy.

SPECIAL NOTES: If you have something. Please contact us. (NEW E-MAIL)

We are looking for: suppliers before retail

Unpublished DVD / BluRay / Web-Dls / R5 / CAM / TS

If you have something to offer, contact us:

Torrent taken from ProstyleX

Visit us for more exclusive things

In general

Format: Sailor

Version format: version 4

File size: GiB

Duration: 1 hour 27 min

General transfer rate mode: variable

Total transfer speed: 3244 kbps

Coded date: UTC 2020-08-27 15:09:22

Writing application: TMPGEnc Video Mastering Works 7 version

Writing Library: TMPGEnc Video Mastering Works 7 version

Video

ID: 1

Format: AVC

Format / information: advanced video codec

Profile format:

Format settings: CABAC / 6 Ref Frames

Format settings, CABAC: Yes

Format settings, reference frames: 6 frames

Codec ID: V_MPEG4 / ISO / AVC

Duration: 1 hour 27 min

Bitrate mode: variable

Upload speed: 3000 kb / s

Maximum transfer speed: Mb / s

Width: 1280 pixels

Height: 536 pixels

Screen ratio: 1

Frame speed mode: constant

Frames per second: FPS

Default: Component

Color space: YUV

Chrome subsample: 4: 2: 0

Bit depth: 8 bits

Scan type: progressive

Bits / (Pixel * frame):

Stream size: GiB (91%)

Records Library: x264 core 155

Coding settings: cabac = 1

Default: Yes

Forced: No.

Color range: limited

Primary colors:

Transmission characteristics:

Matrix coefficients:

Audio

ID: 2

Format: AC-3

Format / information: audio encoding 3

Trade name: Dolby Digital

Codec ID: A_AC3

Duration: 1 hour 27 min

Bitrate mode: constant

Download speed: 224 kbps

Channel (s): 2 channels

Channel format: L R

Sampling frequency: kHz

Frames per second: FPS (1536 SPF)

Compression mode: Lossy

Stream size: 140 MiB (7%)

Type of service: full main line

Default: Yes

Forced: No.

Leave a Reply

Your email address will not be published.